<?xml version="1.0" standalone="no"?>
<!DOCTYPE svg PUBLIC "-//W3C//DTD SVG 1.1//EN" "http://www.w3.org/Graphics/SVG/1.1/DTD/svg11.dtd" >
<svg xmlns="http://www.w3.org/2000/svg">
<metadata>Generated by IcoMoon</metadata>
<defs>
<font id="language_center" horiz-adv-x="1024">
<font-face units-per-em="1024" ascent="960" descent="-64" />
<missing-glyph horiz-adv-x="1024" />
<glyph unicode="&#x20;" horiz-adv-x="512" d="" />
<glyph unicode="&#xe900;" glyph-name="pinned" horiz-adv-x="774" d="M771.746-27.785l-136.117 285.471c-2.698 5.622-7.239 10-12.824 12.425l-0.164 0.063-67.684 29.721 117.385 195.060 0.749 1.499c22.037 42.117 34.967 91.999 34.967 144.901 0 88.898-36.511 169.268-95.355 226.933l-0.053 0.052c-58.075 56.712-137.583 91.699-225.263 91.699-89.055 0-169.679-36.092-228.045-94.447l0.001 0.001c-57.555-57.381-93.166-136.745-93.166-224.426 0-52.839 12.932-102.658 35.805-146.463l-0.832 1.75 0.749-1.499 117.385-194.81-68.183-30.22c-5.529-2.495-9.888-6.773-12.423-12.087l-0.065-0.151-136.117-285.471c-1.575-3.18-2.497-6.925-2.497-10.885 0-6.86 2.766-13.075 7.244-17.589l-0.002 0.002c4.659-4.752 11.146-7.698 18.321-7.698 3.765 0 7.341 0.811 10.563 2.269l-0.161-0.065 170.334 75.177 170.583-75.177c3.004-1.419 6.525-2.248 10.24-2.248s7.236 0.828 10.389 2.311l-0.149-0.063 170.583 75.177 170.334-75.177c3.086-1.396 6.688-2.221 10.48-2.248h0.010c7.146 0.050 13.593 3.003 18.228 7.738l0.004 0.005c4.476 4.512 7.242 10.727 7.242 17.587 0 3.96-0.922 7.705-2.562 11.031l0.065-0.146zM146.107 520.18c-18.42 35.169-29.228 76.827-29.228 121.010 0 0.658 0.002 1.315 0.007 1.971l-0.001-0.101c2.299 147.674 122.55 266.503 270.555 266.503 73.688 0 140.496-29.455 189.293-77.234l-0.047 0.046c49.784-48.433 80.67-116.071 80.67-190.923 0-44.27-10.804-86.017-29.919-122.748l0.699 1.476-219.036-364.144c-4.541-7.535-12.68-12.497-21.979-12.497s-17.437 4.962-21.914 12.383l-0.064 0.115zM578.185 64.375c-3.063 1.303-6.625 2.061-10.365 2.061s-7.302-0.757-10.543-2.127l0.178 0.067-170.334-75.426-170.334 75.426c-3.063 1.303-6.625 2.061-10.365 2.061s-7.302-0.757-10.543-2.127l0.178 0.067-118.135-52.199 102.65 215.54 64.937 28.472 75.926-126.127c13.715-22.308 37.989-36.959 65.686-36.959s51.971 14.651 65.495 36.626l0.191 0.333 75.926 126.127 64.937-28.722 102.65-215.29zM387.122 756.699c-63.281-0.495-114.388-51.909-114.388-115.259 0-63.658 51.605-115.262 115.262-115.262s115.262 51.605 115.262 115.262c0 0.043 0 0.086 0 0.128v-0.007c-0.326 63.659-52.006 115.138-115.711 115.138-0.15 0-0.3 0-0.449-0.001h0.023zM387.122 576.624c-35.756 0.142-64.687 29.16-64.687 64.936 0 35.863 29.073 64.937 64.937 64.937s64.936-29.073 64.937-64.936v0c-0.142-35.894-29.272-64.937-65.186-64.937 0 0 0 0 0 0v0z" />
<glyph unicode="&#xe901;" glyph-name="communication" horiz-adv-x="1280" d="M930.873 959.716h-859.022c-0.042 0-0.093 0-0.143 0-39.645 0-71.802-32.058-71.964-71.665v-514.006c0.129-39.743 32.353-71.916 72.102-71.964h55.699v-191.147c0-0.023 0-0.050 0-0.076 0-12.486 7.619-23.193 18.461-27.726l0.198-0.074c3.417-1.387 7.377-2.217 11.525-2.275h0.024c8.34 0.033 15.889 3.393 21.394 8.821l-0.004-0.003 213.333 212.48h42.667c16.652 0 30.151 13.499 30.151 30.151s-13.499 30.151-30.151 30.151h-57.372c-7.581-0.576-14.307-3.835-19.315-8.819l0.001 0.001-170.496-170.098s0 150.756-0.171 151.609c-1.445 15.372-14.285 27.307-29.913 27.307-0.054 0-0.107 0-0.161 0h-85.894c-6.421 0.063-11.611 5.244-11.691 11.655v513.999c0.079 6.419 5.27 11.599 11.685 11.662h859.028c6.421-0.063 11.611-5.244 11.691-11.655v-197.128c0.516-16.295 13.849-29.309 30.222-29.309s29.707 13.014 30.221 29.262l0.001 0.047v197.12c-0.178 39.626-32.342 71.68-71.992 71.68-0.040 0-0.080 0-0.121 0h0.006zM1208.235 591.36h-601.372c-0.025 0-0.055 0-0.085 0-39.756 0-71.989-32.213-72.021-71.961v-350.439c0.129-39.743 32.353-71.916 72.102-71.964h376.495l152.548-151.893c5.338-5.445 12.769-8.82 20.989-8.82 0.131 0 0.262 0.001 0.393 0.003h-0.020c0.181-0.004 0.394-0.007 0.608-0.007 3.957 0 7.718 0.84 11.115 2.352l-0.174-0.069c11.041 4.606 18.66 15.313 18.66 27.799 0 0.027 0 0.054 0 0.081v-0.004 130.56h20.764c39.754 0.048 71.977 32.222 72.107 71.952v350.448c-0.032 39.752-32.265 71.964-72.021 71.964-0.030 0-0.060 0-0.090 0h0.005zM1219.925 168.96c0-0.017 0-0.037 0-0.057 0-6.409-5.196-11.605-11.605-11.605-0.030 0-0.060 0-0.090 0h-50.967c-0.009 0-0.019 0-0.029 0-15.851 0-28.845-12.232-30.059-27.772l-0.007-0.104c0-0.569 0-90.453 0-90.453l-109.71 109.511c-0.009-0.001-0.019-0.001-0.030-0.001-0.163 0-0.297 0.125-0.312 0.285v0.001c-0.427 0.284-0.825 0.853-1.223 1.138-5.31 4.594-12.284 7.394-19.911 7.396h-389.12c-0.025 0-0.055 0-0.085 0-6.409 0-11.605 5.196-11.605 11.605 0 0.020 0 0.040 0 0.060v-0.003 350.436c0 0.017 0 0.037 0 0.057 0 6.409 5.196 11.605 11.605 11.605 0.030 0 0.060 0 0.090 0h601.367c0.025 0 0.055 0 0.085 0 6.409 0 11.605-5.196 11.605-11.605 0-0.020 0-0.040 0-0.060v0.003-350.436zM907.548 374.329c-16.628-0.032-30.094-13.519-30.094-30.151 0-16.652 13.499-30.151 30.151-30.151s30.151 13.499 30.151 30.151v0c0 0.017 0 0.037 0 0.057 0 16.621-13.474 30.094-30.094 30.094-0.040 0-0.080 0-0.12 0h0.006zM776.249 760.604h-549.86c-16.573 0-30.009-13.435-30.009-30.009s13.435-30.009 30.009-30.009c0 0 0 0 0 0h549.86c16.573 0 30.009 13.435 30.009 30.009s-13.435 30.009-30.009 30.009c0 0 0 0 0 0v0zM435.086 561.493h-208.697c-16.652 0-30.151-13.499-30.151-30.151s13.499-30.151 30.151-30.151h208.811c16.652 0 30.151 13.499 30.151 30.151s-13.499 30.151-30.151 30.151v0zM767.147 374.329c-16.615-0.049-30.066-13.529-30.066-30.151 0-16.652 13.499-30.151 30.151-30.151s30.151 13.499 30.151 30.151v0c0 0.017 0 0.037 0 0.057 0 16.621-13.474 30.094-30.094 30.094-0.050 0-0.1 0-0.15 0h0.008zM1047.922 374.329c-16.628-0.032-30.094-13.519-30.094-30.151 0-16.652 13.499-30.151 30.151-30.151s30.151 13.499 30.151 30.151v0c0 0.017 0 0.037 0 0.057 0 16.621-13.474 30.094-30.094 30.094-0.040 0-0.080 0-0.12 0h0.006z" />
<glyph unicode="&#xe902;" glyph-name="adjust" horiz-adv-x="1229" d="M1197.137 849.798h-757.435v30.232c0 0.048 0 0.106 0 0.163 0 44.019-35.638 79.714-79.636 79.807h-123.539c-44.006-0.092-79.645-35.788-79.645-79.807 0-0.057 0-0.114 0-0.172v0.009-30.232h-124.83c-17.684 0-32.020-14.336-32.020-32.020s14.336-32.020 32.020-32.020v0h124.83v-30.232c0.055-44.041 35.659-79.748 79.656-79.969h123.551c44.011 0.221 79.608 35.932 79.644 79.966v30.236h757.435c17.677 0.009 32.004 14.342 32.004 32.020 0 17.684-14.336 32.020-32.020 32.020-0.006 0-0.011 0-0.017 0h0.001zM376.084 755.525c-0.018-8.79-7.139-15.91-15.927-15.929h-123.532c-8.79 0.018-15.91 7.139-15.929 15.927v124.507c0.018 8.79 7.139 15.91 15.927 15.929h123.532c8.79-0.018 15.91-7.139 15.929-15.927v-124.507zM1197.137 493.186h-124.863v29.907c0 0.058 0 0.127 0 0.196 0 44.078-35.603 79.84-79.62 80.098h-123.554c-44.042-0.258-79.645-36.020-79.645-80.098 0-0.069 0-0.138 0-0.207v0.011-29.907h-757.435c-17.684 0-32.020-14.336-32.020-32.020s14.336-32.020 32.020-32.020v0h757.435v-30.232c0-0.048 0-0.106 0-0.163 0-44.019 35.638-79.714 79.636-79.807h123.539c44.006 0.092 79.645 35.788 79.645 79.807 0 0.057 0 0.114 0 0.172v-0.009 30.232h124.863c17.684 0 32.020 14.336 32.020 32.020s-14.336 32.020-32.020 32.020v0zM1008.591 398.913c-0.018-8.79-7.139-15.91-15.927-15.929h-123.532c-8.79 0.018-15.91 7.139-15.929 15.927v124.182c-0.001 0.068-0.002 0.148-0.002 0.228 0 8.817 7.121 15.972 15.925 16.026h123.535c8.81-0.054 15.931-7.209 15.931-16.026 0-0.080-0.001-0.16-0.002-0.24v0.012-124.18zM1197.137 110.243h-533.52v29.907c0 0.058 0 0.127 0 0.196 0 44.078-35.603 79.84-79.62 80.098h-123.554c-44.042-0.258-79.645-36.020-79.645-80.098 0-0.069 0-0.138 0-0.207v0.011-29.907h-348.745c-17.684 0-32.020-14.336-32.020-32.020s14.336-32.020 32.020-32.020v0h348.68v-30.232c0-0.048 0-0.106 0-0.163 0-44.019 35.638-79.714 79.636-79.807h123.539c44.006 0.092 79.645 35.788 79.645 79.807 0 0.057 0 0.114 0 0.172v-0.009 30.232h533.585c17.684 0 32.020 14.336 32.020 32.020s-14.336 32.020-32.020 32.020v0zM599.901 15.97c-0.018-8.79-7.139-15.91-15.927-15.929h-123.532c-8.79 0.018-15.91 7.139-15.929 15.927v124.182c-0.001 0.068-0.002 0.148-0.002 0.228 0 8.817 7.121 15.972 15.925 16.026h123.535c8.81-0.054 15.931-7.209 15.931-16.026 0-0.080-0.001-0.16-0.002-0.24v0.012-124.18z" />
<glyph unicode="&#xe903;" glyph-name="license" d="M484.937 851.505h54.126v-54.37h-54.126v54.37zM400.823 291.962c18.565 19.47 29.989 45.893 29.989 74.984 0 60.055-48.684 108.739-108.739 108.739s-108.739-48.684-108.739-108.739c0-29.091 11.424-55.514 30.030-75.027l-0.041 0.043c-50.522-28.272-84.114-81.45-84.114-142.473 0-0.055 0-0.109 0-0.164v0.008-54.126h325.73v54.126c-0.051 61.054-33.619 114.256-83.295 142.205l-0.819 0.424zM322.072 420.937c30.027 0 54.37-24.342 54.37-54.37s-24.342-54.37-54.37-54.37c-30.027 0-54.37 24.342-54.37 54.37v0c0 30.027 24.342 54.37 54.37 54.37v0zM213.333 149.333c0 59.988 48.63 108.617 108.617 108.617s108.617-48.63 108.617-108.617h-217.234zM539.063 420.937h327.68v-54.37h-327.68v54.37zM539.063 312.198h327.68v-54.126h-327.68v54.126zM539.063 203.703h108.739v-54.37h-108.739v54.37zM701.928 203.703h164.815v-54.37h-164.815v54.37zM647.802 797.135v27.063c0 75.001-60.801 135.802-135.802 135.802s-135.802-60.801-135.802-135.802v0-27.063h-376.198v-861.135h1024v861.135h-376.198zM430.568 824.198c0 44.974 36.459 81.432 81.432 81.432s81.432-36.459 81.432-81.432v0-81.432h-162.865v81.432zM969.63-9.63h-915.261l-5.608 579.535h926.476zM969.63 634.27h-915.261v108.495h321.829v-54.126h271.604v54.126h321.829v-108.495z" />
<glyph unicode="&#xe904;" glyph-name="book" horiz-adv-x="805" d="M776.606 693.76h-617.155c-58.035 0-105.082 47.047-105.082 105.082s47.047 105.082 105.082 105.082h617.35c15.485 0 28.038 12.553 28.038 28.038s-12.553 28.038-28.038 28.038h-617.35c-88.202-0.649-159.452-72.3-159.452-160.593 0-0.199 0-0.397 0.001-0.595v0.031-701.684c-0.001-0.168-0.001-0.366-0.001-0.565 0-88.293 71.251-159.944 159.391-160.593h617.412c15.355 0.083 27.77 12.549 27.77 27.916 0 0.043 0 0.086 0 0.129v-0.007 701.684c-0.109 15.415-12.556 27.887-27.951 28.038h-0.014zM748.837-7.924h-589.385c-57.491 0.414-103.937 47.116-103.937 104.665 0 0.147 0 0.293 0.001 0.44v-0.022 579.291c27.655-24.164 64.064-38.927 103.919-39.009h589.402v-645.364zM168.229 824.442c-15.485 0-28.038-12.553-28.038-28.038s12.553-28.038 28.038-28.038h521.338c15.485 0 28.038 12.553 28.038 28.038s-12.553 28.038-28.038 28.038h-521.338zM265.899 114.956c2.722-1.081 5.875-1.708 9.175-1.708 0.074 0 0.149 0 0.223 0.001h-0.011c0.027 0 0.059 0 0.091 0 11.975 0 22.163 7.654 25.938 18.337l0.059 0.193 33.816 95.573h130.243c0.163-0.006 0.354-0.010 0.546-0.010 0.988 0 1.954 0.092 2.891 0.269l-0.096-0.015 33.792-95.817c3.893-10.869 14.096-18.508 26.085-18.53h0.003c0.062-0.001 0.136-0.001 0.209-0.001 3.309 0 6.472 0.627 9.376 1.768l-0.174-0.060c10.806 4.042 18.36 14.279 18.36 26.281 0 3.43-0.617 6.716-1.746 9.753l0.063-0.194-126.464 358.156c-0.298 1.034-0.655 1.924-1.088 2.768l0.040-0.086c-0.219 0.488-0.414 0.731-0.634 1.219s-0.414 0.731-0.61 1.219-0.634 0.975-0.853 1.463-0.414 0.731-0.61 0.975l-1.048 1.219c-0.231 0.289-0.505 0.533-0.815 0.724l-0.014 0.008c-0.302 0.465-0.648 0.865-1.042 1.214l-0.006 0.005c-0.413 0.262-0.761 0.587-1.041 0.965l-0.007 0.010c-0.219 0.244-0.634 0.488-0.829 0.731s-0.829 0.731-1.268 1.219-0.61 0.244-0.829 0.488-0.829 0.731-1.243 0.975c-0.355 0.26-0.787 0.435-1.256 0.487l-0.012 0.001-1.243 0.731c-0.701 0.399-1.512 0.733-2.366 0.959l-0.072 0.016h-0.195l-2.438 0.731c-0.414 0-0.634 0.244-1.048 0.244s-1.048 0.244-1.658 0.488h-1.365c-0.414 0-1.024 0.244-1.438 0.244h-2.731c-0.071 0.006-0.154 0.009-0.237 0.009-0.443 0-0.864-0.093-1.246-0.261l0.020 0.008h-1.243c-0.623-0.053-1.194-0.227-1.706-0.499l0.024 0.012c-0.414 0-0.61-0.244-1.024-0.244-0.853-0.244-1.682-0.488-2.292-0.731h-0.317c-0.928-0.248-1.738-0.581-2.492-1.003l0.054 0.028-1.243-0.731c-0.48-0.063-0.91-0.236-1.277-0.494l0.009 0.006c-0.422-0.351-0.892-0.674-1.392-0.951l-0.047-0.024c-0.219-0.244-0.634-0.244-0.853-0.488s-0.829-0.731-1.243-1.219c-0.391-0.079-0.703-0.358-0.827-0.724l-0.002-0.008c-0.287-0.388-0.635-0.713-1.033-0.966l-0.016-0.009-1.048-1.219c-0.226-0.295-0.501-0.54-0.816-0.724l-0.013-0.007c-0.297-0.468-0.644-0.869-1.042-1.213l-0.007-0.006c-0.195-0.244-0.414-0.731-0.634-0.975-0.311-0.355-0.587-0.755-0.813-1.185l-0.016-0.034c-0.195-0.488-0.414-0.731-0.634-1.219-0.168-0.466-0.373-0.868-0.622-1.239l0.013 0.020c-0.393-0.758-0.75-1.648-1.021-2.574l-0.027-0.108-126.781-358.156c-0.903-2.682-1.424-5.771-1.424-8.982 0-12.288 7.633-22.793 18.416-27.034l0.197-0.068zM402.188 416.305l46.958-132.876h-94.135z" />
<glyph unicode="&#xe905;" glyph-name="translate" d="M277.554 685.644h-12.83l-23.962-119.611h60.793zM762.513 446.026c12.572-33.251 29.196-61.981 49.701-87.456l-0.475 0.61c20.734 24.861 38.025 53.566 50.555 84.699l0.763 2.148h-100.426zM933.64 777.622h-372.295l77.649-622.927c0.191-2.227 0.3-4.818 0.3-7.436 0-23.174-8.53-44.355-22.621-60.576l0.096 0.113-131.454-150.402h448.326c49.674 0.045 89.926 40.324 89.926 90.005 0 0 0 0 0 0v0 659.244c0 0.087 0 0.19 0 0.294 0 50.021-40.050 90.688-89.833 91.683l-0.093 0.001zM933.64 446.026h-7.895c-16.192-50.643-40.859-94.444-72.662-132.013l0.461 0.559c22.027-20.133 45.555-36.712 68.964-54.871 6.919-5.552 11.311-14.007 11.311-23.488 0-16.592-13.45-30.042-30.042-30.042-7.111 0-13.645 2.471-18.79 6.6l0.059-0.046c-25.462 20.133-49.305 37.107-73.188 58.819-23.883-21.712-45.752-38.686-71.056-58.819-5.086-4.084-11.62-6.554-18.731-6.554-16.592 0-30.042 13.45-30.042 30.042 0 9.481 4.392 17.936 11.252 23.442l0.059 0.046c23.409 18.159 44.963 34.739 67.109 54.871-30.663 37.063-54.696 80.889-69.511 128.764l-0.717 2.69h-7.895c-16.569 0-30.002 13.432-30.002 30.002s13.432 30.002 30.002 30.002h89.926v30.002c-0.013 0.324-0.020 0.705-0.020 1.088 0 16.569 13.432 30.002 30.002 30.002s30.002-13.432 30.002-30.002c0-0.383-0.007-0.764-0.021-1.143l0.002 0.055v-30.002h91.939c16.459-0.145 29.746-13.522 29.746-30.002 0-16.57-13.433-30.003-30.003-30.003-0.090 0-0.18 0-0.27 0.001h0.014zM488.275 880.654c-5.758 44.667-43.499 78.842-89.243 78.951h-308.79c-49.674-0.045-89.926-40.324-89.926-90.005 0 0 0 0 0 0v0-663.587c0.18-49.529 40.372-89.61 89.925-89.61 0 0 0 0 0 0h472.761c8.88 7.033 14.929 17.304 16.361 29.001l0.021 0.211c0.118 3.158-90.676 731.88-91.11 735.038zM367.914 386.813c-1.889-0.431-4.058-0.678-6.285-0.678-14.334 0-26.279 10.227-28.937 23.782l-0.030 0.187-19.185 95.926h-84.754l-19.146-95.926c-2.857-13.819-14.928-24.059-29.39-24.059-16.558 0-29.98 13.423-29.98 29.98 0 2.096 0.215 4.141 0.624 6.116l-0.034-0.194 59.924 299.621c2.776 13.818 14.814 24.081 29.249 24.081 0.056 0 0.112 0 0.169 0h61.928c0.057 0 0.125 0.001 0.192 0.001 14.428 0 26.458-10.265 29.185-23.891l0.032-0.19 59.964-299.621c0.369-1.76 0.58-3.782 0.58-5.854 0-14.439-10.253-26.482-23.876-29.247l-0.192-0.032zM350.584 56.401l5.132-41.055c4.525-31.142 24.25-56.842 51.278-69.636l0.554-0.236c56.806 62.766 22.422 24.87 100.624 110.927h-157.587z" />
<glyph unicode="&#xe906;" glyph-name="puzzle" d="M512-64.321l-512.321 512.321 196.898 196.898c6.976 8.035 16.934 13.321 28.134 14.125l0.132 0.008c23.448 0 31.157-24.090 37.902-45.29 4.026-16.030 10.667-30.089 19.526-42.451l-0.254 0.373 2.248-2.248c11.999-11.341 28.232-18.313 46.093-18.313s34.093 6.972 46.125 18.343l-0.032-0.030c11.903 11.807 19.272 28.17 19.272 46.253s-7.369 34.447-19.268 46.249l-1.931 1.931c-11.823 8.727-25.617 15.65-40.508 20.004l-0.927 0.232c-19.443 2.7-35.476 15.109-43.22 32.093l-0.142 0.348c-0.211 1.532-0.332 3.303-0.332 5.102 0 12.118 5.473 22.957 14.083 30.181l0.061 0.050 208.462 208.462 198.183-198.504c0.321-0.321 0.642-0.321 0.964-0.642 2.57 5.46 5.46 13.491 7.709 19.915 7.561 26.476 20.285 49.39 37.114 68.621l-0.176-0.205 1.606 1.927c22.030 21.343 52.102 34.499 85.247 34.499 67.694 0 122.572-54.877 122.572-122.572 0-30.906-11.439-59.141-30.314-80.701l0.122 0.142v-0.642l-5.782-6.103c-19.616-16.717-43.367-29.202-69.479-35.724l-1.186-0.251c-6.103-1.927-14.133-4.497-19.593-6.745l185.335-185.335-200.11-200.11c-7.85-8.836-18.894-14.686-31.306-15.727l-0.172-0.012c-25.375 0-33.726 26.018-41.757 51.393-4.965 19.683-13.039 36.952-23.778 52.209l0.33-0.495-3.212 2.891c-14.935 14.887-35.542 24.092-58.299 24.092s-43.364-9.205-58.301-24.094l0.002 0.002c-14.887-14.935-24.092-35.542-24.092-58.299s9.205-43.364 24.094-58.301l-0.002 0.002c15.055-12.403 32.998-21.914 52.626-27.382l1.015-0.241c24.090-8.673 44.969-16.060 49.465-36.296 0.172-1.452 0.271-3.134 0.271-4.84 0-13.396-6.074-25.373-15.619-33.327l-0.070-0.057z" />
<glyph unicode="&#xe907;" glyph-name="house" horiz-adv-x="768" d="M345.6 528.782h76.8v-117.476h-76.8v117.476zM384-63.716c72.249 92.16 384 438.329 384 631.467 0 212.077-171.923 384-384 384s-384-171.923-384-384v0c0-193.138 311.751-539.307 384-631.467v0zM122.596 641.991l249.742 195.982c3.173 2.527 7.239 4.054 11.662 4.054s8.489-1.527 11.7-4.083l-0.038 0.029 249.742-195.982c4.448-3.679 7.261-9.199 7.261-15.376 0-2.232-0.367-4.378-1.045-6.382l0.041 0.14c-2.486-7.717-9.541-13.228-17.904-13.369h-57.758v-215.324c0.001-0.077 0.002-0.168 0.002-0.258 0-10.589-8.496-19.193-19.043-19.368h-345.9c-10.563 0.175-19.060 8.779-19.060 19.368 0 0.091 0.001 0.182 0.002 0.272v-0.014 215.324h-57.742c-8.379 0.141-15.434 5.652-17.882 13.234l-0.038 0.135c-0.731 1.966-1.155 4.238-1.155 6.608 0 6.183 2.88 11.694 7.373 15.264l0.040 0.031v-0.284z" />
<glyph unicode="&#xe908;" glyph-name="quotes" horiz-adv-x="1437" d="M410.586-63.991l205.276 409.61v614.382h-615.794v-614.39h307.889l-205.259-409.601zM1231.655-63.991l205.276 409.61v614.382h-615.81v-614.39h307.897l-205.259-409.61z" />
<glyph unicode="&#xe909;" glyph-name="testimonials-bg" horiz-adv-x="2279" d="M31.368-47.174l-31.249 1007.174 2278.761-16.826-24.038-1007.174z" />
<glyph unicode="&#xe90a;" glyph-name="close" d="M512 260.267l-324.267-324.267-187.733 187.733 324.267 324.267-324.267 324.267 187.733 187.733 324.267-324.267 324.267 324.267 187.733-187.733-324.267-324.267 324.267-324.267-187.733-187.733z" />
<glyph unicode="&#xe90b;" glyph-name="diamonds" horiz-adv-x="432" d="M27.871 121.368l188.132 185.397 188.074-185.382-188.074-185.397zM0.058 747.135l215.946 212.822 215.946-212.865-215.946-212.865zM55.815 747.135l160.189-157.899 160.174 157.885-160.174 157.885z" />
<glyph unicode="&#xe90c;" glyph-name="disc-outline" d="M512 881.015c-0.013 0-0.029 0-0.044 0-239.148 0-433.015-193.868-433.015-433.015 0-119.585 48.476-227.848 126.849-306.21l0.001-0.001c78.366-78.366 186.628-126.836 306.21-126.836 239.165 0 433.047 193.882 433.047 433.047 0 119.582-48.47 227.844-126.836 306.21v0c-77.912 78.33-185.77 126.807-304.95 126.807-0.443 0-0.886-0.001-1.329-0.002h0.069zM512 960c282.77 0 512-229.23 512-512s-229.23-512-512-512c-282.77 0-512 229.23-512 512v0c0 282.77 229.23 512 512 512v0z" />
<glyph unicode="&#xe90d;" glyph-name="disc-solid" horiz-adv-x="1025" d="M512.29 960c282.662-0.156 511.744-229.334 511.744-512.017 0-282.779-229.238-512.017-512.017-512.017s-512.017 229.238-512.017 512.017v0c0.156 282.813 229.456 512.017 512.29 512.017 0 0 0.001 0 0.001 0h-0.001z" />
<glyph unicode="&#xe90e;" glyph-name="ellipse-rectangle" horiz-adv-x="4067" d="M3925.198 6.761c0 39.080 31.681 70.761 70.761 70.761s70.761-31.681 70.761-70.761c0-39.080-31.681-70.761-70.761-70.761v0c-39.080 0-70.761 31.681-70.761 70.761v0zM3484.637 6.761c0 39.080 31.681 70.761 70.761 70.761s70.761-31.681 70.761-70.761c0-39.080-31.681-70.761-70.761-70.761v0c-0.040 0-0.088 0-0.136 0-39.080 0-70.761 31.681-70.761 70.761 0 0 0 0 0 0v0zM3120.936-63.864h-5.558c-39.080 0-70.761 31.681-70.761 70.761s31.681 70.761 70.761 70.761h11.116c39.080 0 70.761-31.681 70.761-70.761s-31.681-70.761-70.761-70.761v0zM2688.373-63.864h-2.169c-39.080 0-70.761 31.681-70.761 70.761s31.681 70.761 70.761 70.761h3.796c39.080 0 70.761-31.681 70.761-70.761s-31.681-70.761-70.761-70.761v0zM2248.083-63.864h-1.898c-39.080 0-70.761 31.681-70.761 70.761s31.681 70.761 70.761 70.761h3.524c39.080 0 70.761-31.681 70.761-70.761s-31.681-70.761-70.761-70.761v0zM1819.044-63.864h-12.878c-39.080 0-70.761 31.681-70.761 70.761s31.681 70.761 70.761 70.761h14.64c39.080 0 70.761-31.681 70.761-70.761s-31.681-70.761-70.761-70.761v0zM1380.516-63.864h-3.524c-39.080 0-70.761 31.681-70.761 70.761s31.681 70.761 70.761 70.761h3.796c39.080 0 70.761-31.681 70.761-70.761s-31.681-70.761-70.761-70.761v0zM938.87-63.864h-1.627c-39.080 0-70.761 31.681-70.761 70.761s31.681 70.761 70.761 70.761h3.253c39.080 0 70.761-31.681 70.761-70.761s-31.681-70.761-70.761-70.761v0zM440.697 6.896c0 39.080 31.681 70.761 70.761 70.761s70.761-31.681 70.761-70.761c0-39.080-31.681-70.761-70.761-70.761v0c-0.040 0-0.088 0-0.136 0-39.033 0-70.684 31.604-70.761 70.618v0.007zM0.136 6.896c0 39.080 31.681 70.761 70.761 70.761s70.761-31.681 70.761-70.761c0-39.080-31.681-70.761-70.761-70.761v0c-0.040 0-0.088 0-0.136 0-39.033 0-70.684 31.604-70.761 70.618v0.007zM3925.198 447.458c0 39.080 31.681 70.761 70.761 70.761s70.761-31.681 70.761-70.761c0-39.080-31.681-70.761-70.761-70.761v0c0 0 0 0 0 0-39.033 0-70.684 31.603-70.761 70.618v0.007zM3484.637 447.458c0 39.080 31.681 70.761 70.761 70.761s70.761-31.681 70.761-70.761c0-39.080-31.681-70.761-70.761-70.761v0c-0.040 0-0.088 0-0.136 0-39.033 0-70.684 31.604-70.761 70.618v0.007zM3120.936 376.832h-5.558c-39.118 0-70.829 31.711-70.829 70.829s31.711 70.829 70.829 70.829h11.116c39.118 0 70.829-31.711 70.829-70.829s-31.711-70.829-70.829-70.829v0zM2688.373 376.832h-2.169c-39.118 0-70.829 31.711-70.829 70.829s31.711 70.829 70.829 70.829h3.796c39.118 0 70.829-31.711 70.829-70.829s-31.711-70.829-70.829-70.829v0zM2248.083 376.832h-1.898c-39.118 0-70.829 31.711-70.829 70.829s31.711 70.829 70.829 70.829h3.524c39.118 0 70.829-31.711 70.829-70.829s-31.711-70.829-70.829-70.829v0zM1819.044 376.832h-12.878c-39.118 0-70.829 31.711-70.829 70.829s31.711 70.829 70.829 70.829h14.64c39.118 0 70.829-31.711 70.829-70.829s-31.711-70.829-70.829-70.829v0zM1380.516 376.832h-3.524c-39.118 0-70.829 31.711-70.829 70.829s31.711 70.829 70.829 70.829h3.796c39.118 0 70.829-31.711 70.829-70.829s-31.711-70.829-70.829-70.829v0zM938.87 376.832h-1.627c-39.118 0-70.829 31.711-70.829 70.829s31.711 70.829 70.829 70.829h3.253c39.118 0 70.829-31.711 70.829-70.829s-31.711-70.829-70.829-70.829v0zM440.697 447.593c0 39.080 31.681 70.761 70.761 70.761s70.761-31.681 70.761-70.761c0-39.080-31.681-70.761-70.761-70.761v0c-0.040 0-0.088 0-0.136 0-38.985 0-70.606 31.526-70.76 70.475v0.015zM0.136 447.593c0 39.080 31.681 70.761 70.761 70.761s70.761-31.681 70.761-70.761c0-39.080-31.681-70.761-70.761-70.761v0c-0.040 0-0.088 0-0.136 0-38.985 0-70.606 31.526-70.76 70.475v0.015zM3925.198 888.832c0.383 38.788 31.916 70.083 70.758 70.083 39.080 0 70.761-31.681 70.761-70.761 0-39.079-31.679-70.759-70.758-70.761v0c-39.113 0.154-70.761 31.897-70.761 71.032 0 0.048 0 0.096 0 0.144v-0.007zM3484.637 888.832c0.383 38.788 31.916 70.083 70.758 70.083 39.080 0 70.761-31.681 70.761-70.761 0-39.079-31.679-70.759-70.758-70.761v0c-39.172 0.077-70.897 31.85-70.897 71.032 0 0.048 0 0.095 0 0.143v-0.007zM3120.936 817.665h-5.558c-38.093 1.712-68.328 33.011-68.328 71.371s30.235 69.659 68.174 71.365l0.154 0.006h11.116c38.093-1.712 68.328-33.011 68.328-71.371s-30.235-69.659-68.174-71.365l-0.154-0.006zM2688.373 817.665h-2.169c-0.929-0.043-2.017-0.068-3.111-0.068-39.455 0-71.439 31.984-71.439 71.439s31.984 71.439 71.439 71.439c1.094 0 2.183-0.025 3.265-0.073l-0.154 0.006h3.796c0.929 0.043 2.017 0.068 3.111 0.068 39.455 0 71.439-31.984 71.439-71.439s-31.984-71.439-71.439-71.439c-1.094 0-2.183 0.025-3.265 0.073l0.154-0.006zM2248.083 817.665h-1.898c-38.093 1.712-68.328 33.011-68.328 71.371s30.235 69.659 68.174 71.365l0.154 0.006h3.524c38.093-1.712 68.328-33.011 68.328-71.371s-30.235-69.659-68.174-71.365l-0.154-0.006zM1819.044 817.665h-12.878c-38.093 1.712-68.328 33.011-68.328 71.371s30.235 69.659 68.174 71.365l0.154 0.006h14.64c38.093-1.712 68.328-33.011 68.328-71.371s-30.235-69.659-68.174-71.365l-0.154-0.006zM1380.516 817.665h-3.524c-38.093 1.712-68.328 33.011-68.328 71.371s30.235 69.659 68.174 71.365l0.154 0.006h3.796c38.093-1.712 68.328-33.011 68.328-71.371s-30.235-69.659-68.174-71.365l-0.154-0.006zM938.87 817.665h-1.627c-38.093 1.712-68.328 33.011-68.328 71.371s30.235 69.659 68.174 71.365l0.154 0.006h3.253c38.093-1.712 68.328-33.011 68.328-71.371s-30.235-69.659-68.174-71.365l-0.154-0.006zM440.697 888.968c0.383 38.788 31.916 70.083 70.758 70.083 39.080 0 70.761-31.681 70.761-70.761 0-39.079-31.679-70.759-70.758-70.761v0c-39.172 0.077-70.896 31.85-70.896 71.032 0 0 0 0 0 0v0zM0.136 888.968c0.383 38.788 31.916 70.083 70.758 70.083 39.080 0 70.761-31.681 70.761-70.761 0-39.079-31.679-70.759-70.758-70.761v0c-39.172 0.077-70.896 31.85-70.896 71.032 0 0 0 0 0 0v0z" />
<glyph unicode="&#xe90f;" glyph-name="ellipse-square" d="M971.198-37.616c0 14.572 11.813 26.384 26.384 26.384s26.384-11.813 26.384-26.384c0-14.572-11.813-26.384-26.384-26.384v0c-14.564 0.019-26.365 11.82-26.384 26.382v0.002zM807.807-37.616c0 14.572 11.813 26.384 26.384 26.384s26.384-11.813 26.384-26.384c0-14.56-11.793-26.365-26.348-26.384h-0.002c-14.578 0-26.399 11.808-26.418 26.382v0.002zM672.848-63.932h-2.048c-14.176 0.526-25.469 12.145-25.469 26.401s11.293 25.876 25.421 26.4l0.048 0.001h4.13c0.283 0.011 0.616 0.017 0.949 0.017 14.59 0 26.418-11.828 26.418-26.418s-11.828-26.418-26.418-26.418c-0.334 0-0.666 0.006-0.997 0.018l0.048-0.001zM511.983-63.966h-0.683c-0.283-0.011-0.616-0.017-0.949-0.017-14.59 0-26.418 11.828-26.418 26.418s11.828 26.418 26.418 26.418c0.334 0 0.666-0.006 0.997-0.018l-0.048 0.001h1.365c14.176-0.526 25.469-12.145 25.469-26.401s-11.293-25.876-25.421-26.4l-0.048-0.001zM348.353-63.966h-0.683c-14.176 0.526-25.469 12.145-25.469 26.401s11.293 25.876 25.421 26.4l0.048 0.001h1.365c14.176-0.526 25.469-12.145 25.469-26.401s-11.293-25.876-25.421-26.4l-0.048-0.001zM163.357-37.616c0 14.572 11.813 26.384 26.384 26.384s26.384-11.813 26.384-26.384c0-14.56-11.793-26.365-26.348-26.384h-0.002c-14.578 0-26.399 11.808-26.418 26.382v0.002zM0-37.616c0 0.010 0 0.022 0 0.034 0 14.59 11.828 26.418 26.418 26.418s26.418-11.828 26.418-26.418c0-14.59-11.828-26.418-26.418-26.418-0.012 0-0.024 0-0.036 0h0.002c-14.564 0.019-26.365 11.82-26.384 26.382v0.002zM971.198 124.205c-0.002 0.132-0.004 0.288-0.004 0.444 0 14.572 11.813 26.384 26.384 26.384s26.384-11.813 26.384-26.384c0-14.57-11.81-26.382-26.38-26.384v0c-0.061-0.001-0.133-0.001-0.206-0.001-14.375 0-26.044 11.586-26.178 25.928v0.013zM807.807 124.205c-0.003 0.142-0.004 0.31-0.004 0.478 0 14.59 11.828 26.418 26.418 26.418s26.418-11.828 26.418-26.418c0-14.589-11.825-26.416-26.414-26.418v0c-0.071-0.001-0.156-0.001-0.24-0.001-14.375 0-26.044 11.586-26.178 25.929v0.013zM672.848 98.367h-2.048c-14.327 0-25.94 11.614-25.94 25.94s11.614 25.94 25.94 25.94v0c0.683 0 1.365 0 2.048 0s1.365 0 2.082 0c14.327 0 25.94-11.614 25.94-25.94s-11.614-25.94-25.94-25.94v0zM512.017 98.367h-0.683c-14.327 0-25.94 11.614-25.94 25.94s11.614 25.94 25.94 25.94h1.365c14.327 0 25.94-11.614 25.94-25.94s-11.614-25.94-25.94-25.94v0zM348.387 98.367h-0.683c-14.327 0-25.94 11.614-25.94 25.94s11.614 25.94 25.94 25.94h1.365c14.327 0 25.94-11.614 25.94-25.94s-11.614-25.94-25.94-25.94v0zM163.391 124.307c-0.003 0.142-0.004 0.31-0.004 0.478 0 14.59 11.828 26.418 26.418 26.418s26.418-11.828 26.418-26.418c0-14.589-11.825-26.416-26.414-26.418v0c-0.082-0.001-0.178-0.001-0.275-0.001-14.339 0-25.985 11.528-26.177 25.821v0.018zM0.034 124.307c-0.003 0.142-0.004 0.31-0.004 0.478 0 14.59 11.828 26.418 26.418 26.418s26.418-11.828 26.418-26.418c0-14.59-11.828-26.418-26.418-26.418-0.010 0-0.021 0-0.031 0h0.002c-0.072-0.001-0.156-0.001-0.241-0.001-14.339 0-25.985 11.528-26.177 25.821v0.018zM971.232 286.333c-0.002 0.132-0.004 0.288-0.004 0.444 0 14.572 11.813 26.384 26.384 26.384s26.384-11.813 26.384-26.384c0-14.57-11.81-26.382-26.38-26.384v0c-0.072-0.001-0.156-0.001-0.241-0.001-14.339 0-25.985 11.528-26.177 25.821v0.018zM807.841 286.333c-0.003 0.142-0.004 0.31-0.004 0.478 0 14.59 11.828 26.418 26.418 26.418s26.418-11.828 26.418-26.418c0-14.589-11.825-26.416-26.414-26.418v0c-0.082-0.001-0.178-0.001-0.275-0.001-14.339 0-25.985 11.528-26.177 25.821v0.018zM672.882 260.495h-2.048c-14.336 0-25.958 11.622-25.958 25.958s11.622 25.958 25.958 25.958h4.13c14.336 0 25.958-11.622 25.958-25.958s-11.622-25.958-25.958-25.958v0zM512.051 260.495h-0.683c-14.336 0-25.958 11.622-25.958 25.958s11.622 25.958 25.958 25.958h1.365c14.336 0 25.958-11.622 25.958-25.958s-11.622-25.958-25.958-25.958v0zM348.421 260.495h-0.683c-14.336 0-25.958 11.622-25.958 25.958s11.622 25.958 25.958 25.958h1.365c14.336 0 25.958-11.622 25.958-25.958s-11.622-25.958-25.958-25.958v0zM163.425 286.435c-0.003 0.142-0.004 0.31-0.004 0.478 0 14.59 11.828 26.418 26.418 26.418s26.418-11.828 26.418-26.418c0-14.589-11.825-26.416-26.414-26.418v0c-0.092-0.001-0.202-0.002-0.311-0.002-14.303 0-25.927 11.47-26.175 25.714v0.023zM0.068 286.435c-0.003 0.142-0.004 0.31-0.004 0.478 0 14.59 11.828 26.418 26.418 26.418s26.418-11.828 26.418-26.418c0-14.59-11.828-26.418-26.418-26.418-0.010 0-0.021 0-0.031 0h0.002c-0.082-0.001-0.179-0.001-0.277-0.001-14.303 0-25.927 11.47-26.175 25.714v0.023zM971.266 448.222c0 14.572 11.813 26.384 26.384 26.384s26.384-11.813 26.384-26.384c0-14.572-11.813-26.384-26.384-26.384v0c-0.020 0-0.045 0-0.069 0-14.5 0-26.267 11.696-26.383 26.168v0.011zM807.875 448.222c0 14.572 11.813 26.384 26.384 26.384s26.384-11.813 26.384-26.384c0-14.56-11.793-26.365-26.348-26.384h-0.002c-0.021 0-0.045 0-0.069 0-14.506 0-26.282 11.692-26.417 26.167v0.013zM672.916 421.906c-0.683 0-1.331 0-2.048 0-14.176 0.526-25.469 12.145-25.469 26.401s11.293 25.876 25.421 26.4l0.048 0.001c0.683 0 1.365 0 2.048 0s1.365 0 2.082 0c14.581 0 26.401-11.82 26.401-26.401s-11.82-26.401-26.401-26.401v0c-0.785-0.273-1.468-0.273-2.15-0.205zM512.085 421.906h-0.683c-14.581 0-26.401 11.82-26.401 26.401s11.82 26.401 26.401 26.401v0h1.365c14.581 0 26.401-11.82 26.401-26.401s-11.82-26.401-26.401-26.401v0zM348.456 421.906h-0.683c-14.581 0-26.401 11.82-26.401 26.401s11.82 26.401 26.401 26.401v0h1.365c14.581 0 26.401-11.82 26.401-26.401s-11.82-26.401-26.401-26.401v0zM163.459 448.256c0 14.572 11.813 26.384 26.384 26.384s26.384-11.813 26.384-26.384c0-14.56-11.793-26.365-26.348-26.384h-0.002c-0.031 0-0.067 0-0.104 0-14.495 0-26.263 11.673-26.417 26.131v0.015zM0 448.017c0 0.010 0 0.022 0 0.034 0 14.59 11.828 26.418 26.418 26.418s26.418-11.828 26.418-26.418c0-14.59-11.828-26.418-26.418-26.418-0.012 0-0.024 0-0.036 0h0.002c-14.572 0-26.384 11.813-26.384 26.384v0zM971.198 609.838c-0.002 0.132-0.004 0.288-0.004 0.444 0 14.572 11.813 26.384 26.384 26.384s26.384-11.813 26.384-26.384c0-14.57-11.81-26.382-26.38-26.384v0c-0.061-0.001-0.134-0.001-0.206-0.001-14.363 0-26.024 11.566-26.178 25.893v0.015zM807.807 609.838c-0.003 0.142-0.004 0.31-0.004 0.478 0 14.59 11.828 26.418 26.418 26.418s26.418-11.828 26.418-26.418c0-14.589-11.825-26.416-26.414-26.418v0c-0.071-0.001-0.156-0.001-0.24-0.001-14.363 0-26.024 11.566-26.178 25.893v0.015zM672.848 583.966h-2.048c-14.336 0-25.958 11.622-25.958 25.958s11.622 25.958 25.958 25.958h4.13c14.336 0 25.958-11.622 25.958-25.958s-11.622-25.958-25.958-25.958v0zM512.017 583.966h-0.683c-14.336 0-25.958 11.622-25.958 25.958s11.622 25.958 25.958 25.958h1.365c14.336 0 25.958-11.622 25.958-25.958s-11.622-25.958-25.958-25.958v0zM348.387 583.966h-0.683c-14.336 0-25.958 11.622-25.958 25.958s11.622 25.958 25.958 25.958h1.365c14.336 0 25.958-11.622 25.958-25.958s-11.622-25.958-25.958-25.958v0zM163.391 609.906c-0.003 0.142-0.004 0.31-0.004 0.478 0 14.59 11.828 26.418 26.418 26.418s26.418-11.828 26.418-26.418c0-14.589-11.825-26.416-26.414-26.418v0c-0.082-0.001-0.178-0.001-0.275-0.001-14.339 0-25.985 11.528-26.177 25.821v0.018zM0.034 609.906c-0.003 0.142-0.004 0.31-0.004 0.478 0 14.59 11.828 26.418 26.418 26.418s26.418-11.828 26.418-26.418c0-14.59-11.828-26.418-26.418-26.418-0.010 0-0.021 0-0.031 0h0.002c-0.072-0.001-0.156-0.001-0.241-0.001-14.339 0-25.985 11.528-26.177 25.821v0.018zM971.232 771.932c-0.002 0.132-0.004 0.288-0.004 0.444 0 14.572 11.813 26.384 26.384 26.384s26.384-11.813 26.384-26.384c0-14.57-11.81-26.382-26.38-26.384v0c-0.072-0.001-0.156-0.001-0.241-0.001-14.339 0-25.985 11.528-26.177 25.821v0.018zM807.841 771.932c-0.003 0.142-0.004 0.31-0.004 0.478 0 14.59 11.828 26.418 26.418 26.418s26.418-11.828 26.418-26.418c0-14.589-11.825-26.416-26.414-26.418v0c-0.082-0.001-0.178-0.001-0.275-0.001-14.339 0-25.985 11.528-26.177 25.821v0.018zM672.882 746.059h-2.048c-14.336 0-25.958 11.622-25.958 25.958s11.622 25.958 25.958 25.958h4.13c14.336 0 25.958-11.622 25.958-25.958s-11.622-25.958-25.958-25.958v0zM512.051 746.059h-0.683c-14.336 0-25.958 11.622-25.958 25.958s11.622 25.958 25.958 25.958h1.365c14.336 0 25.958-11.622 25.958-25.958s-11.622-25.958-25.958-25.958v0zM348.421 746.059h-0.683c-14.336 0-25.958 11.622-25.958 25.958s11.622 25.958 25.958 25.958h1.365c14.336 0 25.958-11.622 25.958-25.958s-11.622-25.958-25.958-25.958v0zM163.425 772c-0.003 0.142-0.004 0.31-0.004 0.478 0 14.59 11.828 26.418 26.418 26.418s26.418-11.828 26.418-26.418c0-14.589-11.825-26.416-26.414-26.418v0c-0.092-0.001-0.201-0.002-0.31-0.002-14.315 0-25.947 11.49-26.176 25.75v0.022zM0.068 772c-0.003 0.142-0.004 0.31-0.004 0.478 0 14.59 11.828 26.418 26.418 26.418s26.418-11.828 26.418-26.418c0-14.59-11.828-26.418-26.418-26.418-0.010 0-0.021 0-0.031 0h0.002c-0.082-0.001-0.179-0.001-0.276-0.001-14.315 0-25.946 11.489-26.176 25.75v0.022zM971.266 933.786c0 14.572 11.813 26.384 26.384 26.384s26.384-11.813 26.384-26.384c0-14.572-11.813-26.384-26.384-26.384v0c-0.010 0-0.023 0-0.035 0-14.518 0-26.302 11.711-26.417 26.203v0.011zM807.875 933.786c0 14.572 11.813 26.384 26.384 26.384s26.384-11.813 26.384-26.384c0-14.56-11.793-26.365-26.348-26.384h-0.002c-0.020 0-0.045 0-0.069 0-14.518 0-26.302 11.711-26.417 26.203v0.011zM672.916 907.471c-0.683 0-1.331 0-2.048 0-14.176 0.526-25.469 12.145-25.469 26.401s11.293 25.876 25.421 26.4l0.048 0.001h4.13c14.581 0 26.401-11.82 26.401-26.401s-11.82-26.401-26.401-26.401v0c-0.785-0.239-1.468-0.239-2.15-0.171zM512.085 907.471h-0.683c-14.581 0-26.401 11.82-26.401 26.401s11.82 26.401 26.401 26.401v0h1.365c14.581 0 26.401-11.82 26.401-26.401s-11.82-26.401-26.401-26.401v0zM348.456 907.471h-0.683c-14.581 0-26.401 11.82-26.401 26.401s11.82 26.401 26.401 26.401v0h1.365c14.581 0 26.401-11.82 26.401-26.401s-11.82-26.401-26.401-26.401v0zM163.459 933.855c0 14.572 11.813 26.384 26.384 26.384s26.384-11.813 26.384-26.384c0-14.56-11.793-26.365-26.348-26.384h-0.002c-0.031 0-0.067 0-0.104 0-14.495 0-26.263 11.673-26.417 26.131v0.015zM0.102 933.855c0 0.010 0 0.022 0 0.034 0 14.59 11.828 26.418 26.418 26.418s26.418-11.828 26.418-26.418c0-14.59-11.828-26.418-26.418-26.418-0.012 0-0.024 0-0.036 0h0.002c-0.021 0-0.045 0-0.070 0-14.494 0-26.263 11.673-26.417 26.131v0.015z" />
<glyph unicode="&#xe910;" glyph-name="plus" d="M418.577-64v418.577h-418.577v186.812h418.577v418.611h186.812v-418.611h418.611v-186.812h-418.577v-418.577z" />
<glyph unicode="&#xe911;" glyph-name="rectangular-point" horiz-adv-x="1544" d="M1428.185-5.833c0.088 31.973 26.027 57.858 58.013 57.858 32.040 0 58.013-25.973 58.013-58.013 0-32.021-25.944-57.983-57.958-58.013h-0.003c0 0 0 0 0 0-32.068 0-58.064 25.996-58.064 58.064 0 0.036 0 0.072 0 0.109v-0.006zM714.015-5.833c0.088 31.973 26.027 57.858 58.013 57.858 32.040 0 58.013-25.973 58.013-58.013s-25.973-58.013-58.013-58.013v0c-32.024 0.059-57.961 26.032-57.961 58.064 0 0.036 0 0.072 0 0.109v-0.006zM-0.051-5.833c0.088 31.973 26.027 57.858 58.013 57.858 32.040 0 58.013-25.973 58.013-58.013s-25.973-58.013-58.013-58.013v0c-32.024 0.059-57.961 26.032-57.961 58.064 0 0.036 0 0.072 0 0.109v-0.006zM1428.133 448.026c0.088 31.973 26.027 57.858 58.013 57.858 32.040 0 58.013-25.973 58.013-58.013 0-32.021-25.944-57.983-57.958-58.013h-0.003c-32.052 0.059-58.013 26.055-58.013 58.116 0 0.018 0 0.036 0 0.054v-0.003zM713.964 448.026c0.088 31.973 26.027 57.858 58.013 57.858 32.040 0 58.013-25.973 58.013-58.013s-25.973-58.013-58.013-58.013v0c-32.002 0.088-57.91 26.050-57.91 58.064 0 0.036 0 0.073 0 0.109v-0.006zM-0.103 448.026c0.088 31.973 26.027 57.858 58.013 57.858 32.040 0 58.013-25.973 58.013-58.013s-25.973-58.013-58.013-58.013v0c-32.008 0.117-57.91 26.091-57.91 58.115 0 0.018 0 0.036 0 0.055v-0.003zM1428.082 901.884c0.088 31.973 26.027 57.858 58.013 57.858 32.040 0 58.013-25.973 58.013-58.013 0-32.021-25.944-57.983-57.958-58.013h-0.003c-32.030 0.088-57.961 26.073-57.961 58.116 0 0 0 0 0 0v0zM713.912 901.884c0.088 31.973 26.027 57.858 58.013 57.858 32.040 0 58.013-25.973 58.013-58.013s-25.973-58.013-58.013-58.013v0c-31.979 0.117-57.858 26.068-57.858 58.064 0 0.018 0 0.036 0 0.055v-0.003zM-0.154 901.884c0.088 31.973 26.027 57.858 58.013 57.858 32.040 0 58.013-25.973 58.013-58.013s-25.973-58.013-58.013-58.013v0c-31.986 0.146-57.858 26.109-57.858 58.115 0 0 0 0 0 0.001v0z" />
<glyph unicode="&#xe912;" glyph-name="semicircle-bold" horiz-adv-x="512" d="M0-64.017v146.295c0.742-0.005 1.62-0.009 2.498-0.009 201.982 0 365.722 163.739 365.722 365.722s-163.739 365.722-365.722 365.722c-0.878 0-1.756-0.003-2.633-0.009l0.135 0.001v146.278c282.77 0 512-229.23 512-512s-229.23-512-512-512v0z" />
<glyph unicode="&#xe913;" glyph-name="semicircle-small" horiz-adv-x="971" d="M390.399-64c-226.368 59.703-390.569 262.603-390.569 503.854 0 287.345 232.939 520.284 520.284 520.284 191.573 0 358.964-103.539 449.264-257.711l1.329-2.455-128.72-74.423c-65.448 111.883-185.016 185.844-321.859 185.844-205.246 0-371.631-166.385-371.631-371.631 0-172.325 117.289-317.255 276.392-359.315l2.592-0.582z" />
<glyph unicode="&#xe914;" glyph-name="square-lines" d="M992.154-64.137l-992.188 992.188v31.812h31.812l992.188-992.188v-31.812zM823.262-64.137l-823.296 823.296v63.659l886.955-886.955zM654.37-64.137l-654.404 654.404v63.625l718.063-718.029zM485.478-64.137l-485.547 485.513v63.659l549.205-549.171zM316.587-64.137l-316.655 316.655v63.625l380.348-380.279zM147.695-64.137l-147.763 147.763v63.863l211.422-211.422zM-0.068-64.137v42.53l42.564-42.53zM136.977 959.863h63.625l823.296-823.296v-63.659zM305.869 959.863h63.625l654.404-654.404v-63.659zM474.761 959.863h63.625l485.547-485.547v-63.659zM643.652 959.863h63.625l316.655-316.655v-63.659zM812.544 959.863h63.625l147.763-147.763v-63.659zM981.436 959.863h42.53v-42.53z" />
<glyph unicode="&#xe915;" glyph-name="stripes-bold" horiz-adv-x="2043" d="M479.887 242.485l1563.413 416.138v-306.485l-1563.413-416.138zM0 543.862l1563.345 416.138v-306.485l-1563.345-416.138z" />
<glyph unicode="&#xe916;" glyph-name="stripes" horiz-adv-x="4000" d="M940 136l3060 612v-200l-3060-612zM0 348l3060 612v-200l-3060-612z" />
<glyph unicode="&#xe917;" glyph-name="triangle-outline" d="M185.651 121.651l584.738 156.672-428.066 428.066-156.672-584.738zM0.068-64l274.364 1024 749.636-749.602z" />
<glyph unicode="&#xe918;" glyph-name="triangle-solid-straight" horiz-adv-x="887" d="M886.84 447.985l-886.81-511.985v1024z" />
<glyph unicode="&#xe919;" glyph-name="triangle-solid" d="M1024.171-64l-1024 274.364 749.636 749.636z" />
<glyph unicode="&#xe91a;" glyph-name="triangle-thin" d="M990.72 926.686l-945.22-253.269 691.951-691.951 253.269 945.22zM1024 960l-274.398-1024-749.602 749.602z" />
<glyph unicode="&#xe91b;" glyph-name="wave-bold" horiz-adv-x="4336" d="M796.509-62.844l-796.509 753.728 254.519 269.116 547.771-518.287 573.642 518.143 248.304-274.608zM1897.544-62.844l-796.509 753.728 254.663 269.116 547.482-518.287 573.642 518.143 248.304-274.608zM2998.434-62.844l-796.653 753.728 254.663 269.116 547.771-518.287 573.642 518.143 248.304-274.608zM4076.344-64.145l-773.817 759.798 260.155 264.347 773.239-759.653z" />
<glyph unicode="&#xe91c;" glyph-name="wave-solid" horiz-adv-x="6072" d="M4518.058-64l-741.029 738.195-741.029-738.195-741.029 738.195-741.029-738.195-741.029 738.195-669.375-666.744-143.51 142.903 812.885 809.646 741.029-738.195 741.029 738.195 741.029-738.195 741.029 738.195 741.029-738.195 741.029 738.195 812.885-809.646-143.51-142.903-669.375 666.744z" />
<glyph unicode="&#xe91d;" glyph-name="palette" horiz-adv-x="1275" d="M5.112 487.075c-18.172-144.518 12.234-379.571 88.96-392.388 800.555-133.728 399.167-170.815 800.33-155.284 186.652 7.225 346.186 171.325 376.386 383.035 43.768 306.823-260.203 586.857-595.825 632.124-333.614 45-636.396-201.428-669.85-467.488z" />
<glyph unicode="&#xe91e;" glyph-name="disc-lines" d="M367.618 939.316c16.611 4.881 33.564 8.932 50.825 12.12l-409.881-409.881c3.189 17.261 7.246 34.221 12.12 50.825zM0 448.004c0 7.189 0.19 14.33 0.482 21.457l490.060 490.053c7.12 0.294 14.267 0.482 21.457 0.482 5.826 0 11.623-0.133 17.401-0.322l-529.072-529.079c-0.196 5.784-0.329 11.575-0.329 17.408zM5.644 371.896l582.464 582.464c11.023-1.643 21.927-3.658 32.711-5.993l-609.188-609.188c-2.336 10.785-4.343 21.688-5.986 32.717zM25.277 288.807l645.92 645.921c9.617-3.147 19.129-6.532 28.487-10.226l-664.19-664.181c-3.685 9.357-7.070 18.862-10.217 28.486zM55.386 216.182l688.43 688.437c8.498-4.322 16.849-8.875 25.060-13.652l-699.844-699.837c-4.77 8.211-9.329 16.562-13.645 25.053zM94.083 152.167l713.756 713.748c7.526-5.336 14.89-10.876 22.101-16.603l-719.252-719.252c-5.721 7.218-11.267 14.576-16.603 22.108zM140.425 95.781l723.797 723.791c6.623-6.274 13.072-12.729 19.353-19.352l-723.798-723.791c-6.616 6.273-13.072 12.729-19.352 19.352zM194.062 46.683l719.251 719.259c5.721-7.218 11.268-14.576 16.603-22.101l-713.755-713.755c-7.527 5.336-14.891 10.876-22.101 16.596zM955.138 191.417c-44.83-77.262-109.287-141.719-186.557-186.557zM255.125 5.034l699.844 699.837c4.77-8.211 9.33-16.561 13.646-25.052l-688.431-688.437c-8.49 4.315-16.841 8.875-25.060 13.652zM324.317-28.509l664.188 664.188c3.685-9.357 7.077-18.862 10.218-28.486l-645.921-645.921c-9.617 3.147-19.129 6.532-28.486 10.218zM1015.44 354.438c-3.189-17.261-7.247-34.214-12.12-50.818l-346.935-346.935c-16.612-4.881-33.564-8.939-50.825-12.128zM403.18-52.371l609.188 609.195c2.336-10.785 4.343-21.696 5.993-32.717l-582.47-582.464c-11.023 1.644-21.927 3.658-32.711 5.987zM1023.671 465.398c0.197-5.784 0.329-11.575 0.329-17.394 0-7.197-0.189-14.345-0.482-21.464l-490.060-490.053c-7.12-0.294-14.267-0.482-21.456-0.482-5.827 0-11.624 0.133-17.402 0.322zM255.42 891.134l-186.557-186.55z" />
<glyph unicode="&#xe91f;" glyph-name="disc-solid-bold" d="M512-64c-282.77 0-512 229.23-512 512s229.23 512 512 512c282.77 0 512-229.23 512-512v0c-0.33-282.637-229.363-511.67-511.968-512h-0.032zM512 848.862c-0.041 0-0.089 0-0.137 0-221.39 0-400.862-179.472-400.862-400.862s179.472-400.862 400.862-400.862c221.39 0 400.862 179.472 400.862 400.862v0c-0.175 221.299-179.448 400.668-400.694 400.998h-0.031z" />
<glyph unicode="&#xe920;" glyph-name="globus" d="M512 960c-282.337 0-512-229.664-512-512s229.663-512 512-512c282.335 0 512 229.664 512 512s-229.664 512-512 512zM413.857 875.5c-51.953-60.794-93.080-131.151-120.286-208.073h-161.429c60.047 103.899 161.257 180.629 281.714 208.073zM610.215 875.429c120.418-27.459 221.607-104.124 281.642-208.001h-161.429c-27.196 76.885-68.291 147.228-120.213 208.001zM512 871.86c60.076-57.023 107.804-126.435 139.427-204.427h-278.856c31.625 77.991 79.348 147.404 139.429 204.427zM98.572 594.288h173.785c-10.691-47.061-16.357-96.043-16.357-146.284 0-50.26 5.66-99.217 16.357-146.287h-173.785c-16.161 45.8-25.429 94.878-25.429 146.287s9.268 100.484 25.429 146.284zM348.215 594.288h327.57c12.055-46.807 19.074-95.654 19.074-146.284 0-50.632-7.019-99.487-19.074-146.287h-327.57c-12.058 46.806-19.071 95.647-19.071 146.287 0 50.626 7.018 99.481 19.071 146.284zM751.644 594.288h173.787c16.161-45.8 25.428-94.875 25.428-146.284s-9.267-100.487-25.428-146.287h-173.787c10.692 47.062 16.356 96.038 16.356 146.287s-5.664 99.215-16.356 146.284zM132.143 228.576h161.429c27.21-76.903 68.33-147.293 120.286-208.073-120.456 27.443-221.668 104.173-281.714 208.073zM372.571 228.576h278.856c-31.623-77.973-79.351-147.34-139.427-204.358-60.062 57.009-107.807 126.399-139.429 204.358zM730.429 228.576h161.429c-60.048-103.898-161.257-180.629-281.717-208.073 51.973 60.793 93.073 131.151 120.288 208.073z" />
<glyph unicode="&#xe921;" glyph-name="play" d="M877.021 583.624l-584.293 355.483c-97.871 59.688-219.588-15.657-219.588-135.472v-711.254c0-119.955 121.716-195.009 219.439-135.608l584.442 355.481c98.453 59.979 98.453 211.391 0 271.371z" />
<glyph unicode="&#xe922;" glyph-name="puzzle1" d="M877.713-63.999h-146.283c-20.117 0-36.571 16.459-36.571 36.571 0 60.342-49.371 109.717-109.717 109.717-60.342 0-109.712-49.376-109.712-109.717 0-20.112-16.459-36.571-36.572-36.571h-146.286c-80.822 0-146.285 65.461-146.285 146.287v113.371c-83.383 16.821-146.286 90.694-146.286 179.2 0 88.502 62.903 162.010 146.286 179.198v113.371c0 80.822 65.463 146.285 146.285 146.285h113.371c16.822 83.383 90.697 146.286 179.198 146.286 88.506 0 162.011-62.903 179.2-146.286h113.371c80.826 0 146.287-65.463 146.287-146.285v-146.286c0-20.115-16.459-36.572-36.571-36.572-60.342 0-109.717-49.371-109.717-109.712 0-60.346 49.376-109.717 109.717-109.717 20.112 0 36.571-16.453 36.571-36.571v-146.283c0-80.826-65.461-146.287-146.287-146.287zM764.342 9.142h113.371c40.229 0 73.146 32.917 73.146 73.146v113.371c-83.386 16.821-146.287 90.694-146.287 179.2 0 88.502 62.902 162.010 146.287 179.198v113.371c0 40.228-32.917 73.142-73.146 73.142h-146.283c-20.117 0-36.571 16.458-36.571 36.572 0 60.343-49.371 109.714-109.717 109.714-60.342 0-109.712-49.372-109.712-109.714 0-20.115-16.459-36.572-36.572-36.572h-146.286c-40.228 0-73.142-32.914-73.142-73.142v-146.286c0-20.115-16.458-36.572-36.572-36.572-60.343 0-109.714-49.371-109.714-109.712 0-60.346 49.372-109.717 109.714-109.717 20.115 0 36.572-16.453 36.572-36.571v-146.283c0-40.229 32.914-73.146 73.142-73.146h113.371c16.822 83.386 90.697 146.287 179.198 146.287 88.506 0 162.011-62.902 179.2-146.287z" />
<glyph unicode="&#xe923;" glyph-name="support" horiz-adv-x="935" d="M468.017 951.675c205.853 0 373.737-151.245 373.75-336.948v-103.075c0.004-0.756-0.046-1.529-0.087-2.28 56.529-38.277 93.322-99.865 93.322-169.12 0-70.353-37.993-132.222-96.051-169.93v-13.146c0-38.249-15.176-74.95-42.215-101.999-27.049-27.049-63.75-42.256-101.999-42.26h-89.036c-4.827-14.644-12.963-28.139-24.059-39.261-18.664-18.719-43.995-29.256-70.426-29.334h-72.13c-26.484 0-51.885 10.519-70.61 29.243-18.724 18.728-29.246 44.129-29.246 70.61v4.071c0.077 26.431 10.623 51.767 29.335 70.431 18.718 18.664 44.088 29.155 70.522 29.155h72.13c26.408 0 51.758-10.482 70.426-29.155 9.456-9.456 16.778-20.638 21.736-32.777h91.357c18.884 0.004 36.994 7.528 50.352 20.881 8.801 8.801 14.997 19.69 18.243 31.482-18.138-4.222-37.136-6.484-56.703-6.484-9.675 0.004-18.957 3.847-25.799 10.687-6.842 6.846-10.687 16.128-10.687 25.803v346.605c0.302 9.473 4.282 18.451 11.090 25.043s15.921 10.287 25.396 10.285c21.536 0 42.389-2.803 62.161-7.96v72.487c-0.013 145.99-134.923 262.761-300.774 262.761-165.844-0.004-300.758-118.233-300.772-262.761v-72.129c19.455 4.928 39.935 7.601 61.085 7.602 9.68 0 19.002-3.843 25.846-10.687 6.838-6.842 10.685-16.13 10.687-25.804v-345.443c0-9.671-3.853-18.957-10.687-25.803-6.845-6.846-16.166-10.687-25.846-10.687-125.843 0.009-228.324 94.014-228.329 209.64 0 69.657 37.216 131.141 94.31 169.033-0.012 0.394-0.045 0.81-0.045 1.204v103.075c0.012 185.7 167.903 336.943 373.75 336.948zM439.669 74.852c-7.068-0.004-13.847-2.816-18.873-7.785-5.029-4.973-7.882-11.75-7.96-18.825v-4.071c0-7.12 2.792-13.966 7.826-19.004 5.036-5.037 11.884-7.867 19.007-7.871h71.548c7.070 0.078 13.852 2.93 18.825 7.963 4.954 5.010 7.67 11.782 7.693 18.825-0.261 1.754-0.403 3.531-0.403 5.32 0 0.792 0.037 1.584 0.087 2.372-0.769 5.738-3.283 11.105-7.423 15.249-4.982 4.982-11.731 7.826-18.778 7.826h-71.548zM191.841 474.584c-32.001-5.303-61.202-21.435-82.772-45.659-21.572-24.228-34.208-55.114-35.775-87.511 1.632-32.352 14.299-63.169 35.863-87.337 21.564-24.16 50.733-40.232 82.683-45.521v266.026zM743.121 208.557c31.958 5.289 61.163 21.357 82.73 45.521 21.563 24.169 34.229 54.986 35.863 87.337-1.566 32.397-14.209 63.283-35.777 87.511-21.572 24.228-50.814 40.356-82.817 45.659v-266.026z" />
<glyph unicode="&#xe924;" glyph-name="updates" d="M808.564 644.654h-23.631c-9.36 65.716-42.123 125.848-92.262 169.349s-114.292 67.452-180.671 67.452c-66.378 0-130.531-23.95-180.671-67.452s-82.899-103.633-92.265-169.349h-23.63c-57.105-0.105-111.841-22.835-152.219-63.214s-63.11-95.115-63.214-152.22v-41.747c0.105-57.107 22.835-111.84 63.214-152.222 40.379-40.379 95.114-63.107 152.219-63.213 10.446 0 20.464 4.152 27.849 11.539 7.386 7.382 11.536 17.404 11.536 27.848s-4.149 20.462-11.536 27.848c-7.386 7.387-17.404 11.533-27.849 11.533-36.214 0.107-70.914 14.536-96.522 40.145-25.607 25.604-40.039 60.309-40.142 96.522v41.747c0.104 36.214 14.536 70.915 40.142 96.522s60.308 40.039 96.522 40.143h60.259c10.445 0 20.463 4.149 27.849 11.536s11.536 17.404 11.536 27.849c0 52.228 20.747 102.316 57.678 139.246s87.017 57.678 139.246 57.678c52.229 0 102.317-20.747 139.245-57.678s57.679-87.018 57.679-139.246c0-10.445 4.147-20.463 11.533-27.849s17.404-11.536 27.848-11.536h60.258c36.217-0.104 70.916-14.536 96.522-40.143 25.609-25.607 40.043-60.308 40.145-96.522v-41.747c-0.102-36.212-14.536-70.916-40.145-96.522-25.604-25.609-60.304-40.039-96.522-40.145-10.445 0-20.462-4.147-27.848-11.533s-11.533-17.404-11.533-27.848c0-10.445 4.147-20.466 11.533-27.848 7.387-7.387 17.404-11.539 27.848-11.539 57.107 0.107 111.844 22.835 152.222 63.213 40.379 40.383 63.111 95.115 63.213 152.222v41.747c-0.102 57.105-22.835 111.841-63.213 152.22s-95.115 63.11-152.222 63.214zM539.931 25.773c-3.747-3.589-8.16-6.4-12.995-8.272-9.588-3.942-20.345-3.942-29.933 0-4.836 1.871-9.248 4.683-12.995 8.272l-157.54 157.537c-3.692 3.658-6.621 8.016-8.621 12.814-2 4.804-3.029 9.946-3.029 15.146 0 5.204 1.030 10.347 3.029 15.151 2 4.799 4.929 9.155 8.621 12.814 3.661 3.692 8.018 6.623 12.817 8.62 4.8 2.001 9.948 3.030 15.147 3.030s10.347-1.029 15.147-3.030c4.8-1.997 9.155-4.929 12.817-8.62l90.191-90.582v345.473c0 10.446 4.147 20.464 11.533 27.849s17.404 11.536 27.848 11.536c10.449 0 20.466-4.149 27.853-11.536s11.533-17.404 11.533-27.849v-345.473l90.191 90.582c3.663 3.692 8.016 6.623 12.818 8.62 4.799 2.001 9.946 3.030 15.146 3.030s10.347-1.029 15.146-3.030c4.799-1.997 9.155-4.929 12.814-8.62 3.692-3.658 6.623-8.016 8.62-12.814 2.001-4.804 3.030-9.946 3.030-15.151 0-5.199-1.029-10.343-3.030-15.146-1.997-4.799-4.929-9.155-8.62-12.814l-157.537-157.537z" />
<glyph unicode="&#xe925;" glyph-name="arrow" d="M487.948 956.756c-24.627-5.82-44.337-22.889-53.699-45.352l-0.187-0.507c-7.857-17.165-8.369-37.148-8.454-350.558l-0.085-332.454-149.19 148.678c-152.777 152.35-160.292 158.498-193.682 158.584-23.826 0.085-61.23-25.961-74.809-52.007-8.711-16.567-9.052-51.922-0.683-67.891 3.501-6.661 108.797-114.86 233.99-240.48 248.849-249.618 243.213-245.006 285.143-235.613 10.931 2.391 27.071 9.308 35.867 15.372 26.046 18.019 444.581 440.397 453.206 457.306 9.65 19.3 10.162 53.544 0.854 71.307-13.578 26.046-50.983 52.093-74.809 52.007-33.391-0.085-40.906-6.234-193.682-158.584l-149.19-148.678v331.429c0 361.489 0.854 349.619-26.046 377.715-19.215 20.068-53.032 28.010-84.544 19.727z" />
</font>
</defs>
</svg>
